Beta version v6.4.06 for Z9X/Z10 Pro/Z1000 Pro/UHD3000/NEO S/NEO X release

Discussion in 'HDD Media player(RTD 1619DR)' started by mirror, May 21, 2022.

  1. clubcarbill

    clubcarbill New Member

    ตอนนี้ใครยังไม่นอนบ้าง? ตัวอย่างหนังของฉันเปิดแล้ว แต่ทำไมยังเล่นไม่ได้ ลองเปิดดูข้างใน

    ฉันใช้ Zidoo Z9X Firmware V6.4.05_G PXL_20220625_075423826.PORTRAIT.jpg PXL_20220625_075231997.jpg PXL_20220625_080237172.jpg
     
  2. damagedspline

    damagedspline New Member

    Did any one encounter the issue with HT4.0, that when setting the entire OS language to an RTL language, left and right keys on the remote (or any other 3rd party remote) have flipped behavior in the HT4.0?
     
  3. serg fedorov

    serg fedorov Active Member

    Will trailers for home theater 4 be returned in the next firmware?
    Currently using firmware 3.90. The most stable of all. IMHO.
    I noticed that if I previously watched trailers on YouTube, then these trailers are perfectly reproduced in HT4. Without stops.
    I wonder what it has to do with?
     
  4. Nice Monkey

    Nice Monkey Well-Known Member Beta test group

    In networks lots of equipment e.g. load balancers do caching. So repeated playback may give a different performance for sure.
     
    serg fedorov likes this.
  5. blenky

    blenky Active Member

    Please use English as this is an English language only forum. Thanks
     
    xskip likes this.
  6. blenky

    blenky Active Member

    I have seen rumours of an imminent new beta? Is this true? :)
     
  7. Visconti12

    Visconti12 Active Member

    I'm smelling this is question of hours!! :cool: or days!!
    Correction: days!!
     
    Last edited: Jul 1, 2022
  8. UTAVATU

    UTAVATU Active Member

    Dear @Markswift2003

    I think it might be a problem, because I have also such freezes.

    When I start playing via Media Center a .mkv file 4K, 1080p, HDR/DV, Atmos, DD+ - it happens on all mentioned. I have no problem with my Network, everything is via Ethernet 1Gbps and when playing via SMB it plays, then after some time it freezes for few minutes (I need to stop movie, but after clicking STOP I need to wait for 30s-60s to back to Media Center folder structure again, then play it again), it freezes again and so on...

    No such problem with HDD connected to USB3.0 directly to Z9X.

    I have never had such issue with freezing in whole time, when I started to use Z9X (1.5 year or so)... I also have the same router, switches, cables, firmwares as always.

    Sincerely
     
  9. Armin Moesslacher

    Armin Moesslacher Active Member

    You should check if HT keeps downloading media info (jpgs etc) in the background (I personally have HT disabled because of that annoying behavior).

    With the media center I never faced problems when HT was switched off.....
     
  10. cucnz

    cucnz Active Member


    id still start with proving the ethernet from zidoo to router to PC ? is actually running at full 1 gig rates
    easy enuff to have a cat 5 cable plugged in slowing it all down or a faulty port on the router

    i even had to get a plug in gigalan network card cos the ethernet port on my pc went slow ie 1 giga running only 100 or less

    first thing i always do now if i have stuttering after an update

    full power off at back of z9x for 30 secs or so ......that almost always fixes it (started seeing these after patches from like .60ish on )

    next thing
    go to browser on Z9X
    search for dsl speed test and run one of those a few times SHOULD be getting close to your max fibre speed ie for me near 300 down

    example couple months back i was getting big stutter /lag issues via lan running movies and tv epis over media centre
    running the dsl test from z9x showed me i was running only at 100 M speeds instead of 1000 M
    same on PC when i ran tests there
    turned out id been adding/removing some programs and pc just needed a restart to sort the issue

    edit in
    something i just remebered since im moving files atm while jdownloader is running at near high download speeds
    with my lan running pretty fast with the d/ls atm my normal 105/110 MB/s data transfers via usb3 is only reaching 10-20 MB/s no where near enuff to run a movie over lan to Z9X without stutters / stops

    ie you or maybe someone else is clogging up the network with downloads (a possibility )

    with all the work from updates we just never see stutters or microstutters anymore (unless an issue added in latest patch and then the thread is full of posts saying the issues real quick ..and a newer patch will come a week later
     
    Last edited: Jul 1, 2022
    Cranks likes this.
  11. maglione

    maglione Member

    Hi, one question? I download two .ts files and don't work, any ideas? Thanks!!
     
  12. Netmask

    Netmask Active Member

    Post a MediaInfo file report, might help in identifying the problem.
     
  13. maglione

    maglione Member

    General
    ID : 1 (0x1)
    Complete name : D:\MusicVideos\Paul McCartney - Live @ Glastonbury 2022 FEED HDTV 422 H264 1080i MP2-ilya2129.ts
    Format : MPEG-TS
    File size : 35.2 GiB
    Duration : 2 h 40 min
    Overall bit rate mode : Variable
    Overall bit rate : 31.4 Mb/s
    Video
    ID : 33 (0x21)
    Menu ID : 1 (0x1)
    Format : AVC
    Format/Info : Advanced Video Codec
    Format profile : High 4:2:2@L4.1
    Format settings : CABAC / 4 Ref Frames
    Format settings, CABAC : Yes
    Format settings, Reference frames : 4 frames
    Codec ID : 27
    Duration : 2 h 40 min
    Bit rate : 29.7 Mb/s
    Width : 1 920 pixels
    Height : 1 080 pixels
    Display aspect ratio : 16:9
    Frame rate : 25.000 FPS
    Color space : YUV
    Chroma subsampling : 4:2:2
    Bit depth : 10 bits
    Scan type : Interlaced
    Scan type, store method : Separated fields
    Scan order : Top Field First
    Bits/(Pixel*Frame) : 0.572
    Stream size : 33.2 GiB (94%)
    Color range : Limited
    Color primaries : BT.709
    Transfer characteristics : BT.709
    Matrix coefficients : BT.709
    Audio
    ID : 34 (0x22)
    Menu ID : 1 (0x1)
    Format : MPEG Audio
    Format version : Version 1
    Format profile : Layer 2
    Codec ID : 3
    Duration : 2 h 40 min
    Bit rate mode : Constant
    Bit rate : 192 kb/s
    Channel(s) : 2 channels
    Sampling rate : 48.0 kHz
    Frame rate : 41.667 FPS (1152 SPF)
    Compression mode : Lossy
    Delay relative to video : 69 ms
    Stream size : 220 MiB (1%)
    Language : English
     
  14. maglione

    maglione Member

    Another one

    General
    ID : 1 (0x1)
    Complete name : D:\MusicVideos\Liam Gallagher - Isle of Wight Festival (2021).ts
    Format : MPEG-TS
    File size : 8.95 GiB
    Duration : 1 h 3 min
    Overall bit rate mode : Variable
    Overall bit rate : 20.1 Mb/s
    Maximum Overall bit rate : 35.5 Mb/s
    Video
    ID : 4113 (0x1011)
    Menu ID : 1 (0x1)
    Format : AVC
    Format/Info : Advanced Video Codec
    Format profile : High 4:2:2@L4
    Format settings : CABAC / 3 Ref Frames
    Format settings, CABAC : Yes
    Format settings, Reference frames : 3 frames
    Codec ID : 27
    Duration : 1 h 3 min
    Bit rate mode : Constant
    Bit rate : 18.7 Mb/s
    Nominal bit rate : 19.7 Mb/s
    Width : 1 920 pixels
    Height : 1 080 pixels
    Display aspect ratio : 16:9
    Frame rate : 25.000 FPS
    Color space : YUV
    Chroma subsampling : 4:2:2
    Bit depth : 10 bits
    Scan type : MBAFF
    Bits/(Pixel*Frame) : 0.360
    Stream size : 8.34 GiB (93%)
    Color range : Limited
    Color primaries : BT.709
    Transfer characteristics : BT.709
    Matrix coefficients : BT.709
    Audio
    ID : 4352 (0x1100)
    Menu ID : 1 (0x1)
    Format : MPEG Audio
    Format version : Version 1
    Format profile : Layer 2
    Codec ID : 4
    Duration : 1 h 3 min
    Bit rate mode : Constant
    Bit rate : 384 kb/s
    Channel(s) : 2 channels
    Sampling rate : 48.0 kHz
    Frame rate : 41.667 FPS (1152 SPF)
    Compression mode : Lossy
    Stream size : 175 MiB (2%)
     
  15. Phil181

    Phil181 Member

    Since these are downloaded (source and quality unknown?) have you ensured they play fine on a PC using VLC?
    They both appear to be 1080p from Blu-ray but are AVC 10bit video and only have mpeg audio, suggesting they are not of a Blu-ray standard.

    You could also try using ZDMC (the Kodi player, not the Zidoo player) or an Android player and see if that works (assuming they can play on a PC).
     
  16. Netmask

    Netmask Active Member


    As an experiment you could wrap one of those TS files in a MKV container using mkvtoolnix and check if it will play on the Zidoo. I can't give you a logical explanation why, but it has worked for me in the past with troublesome files.
     
  17. DaMacFunkin

    DaMacFunkin Active Member

    The problem with these files is they have been ripped from a certain Satellite, you can tell by the 4:2:2 Chroma (and i also know they are recently broadcasted music concerts).
    I have had problems with these files over the years, i presume the obvious playback device would be an enigma2 box.
     
  18. Netmask

    Netmask Active Member

    Maybe just maybe TSDoctor might find some transmission errors (you can download the trial version for 30 days and is fully operational - I have an Australian clone of the enigma2 box the BeyonWiz V2 PVR and TS Doctor is the most recommended program for fixing transmission errors and demuxing etc. For SD transmission ProjectX worked really well but is very "long in the tooth" these days.
     
  19. Netmask

    Netmask Active Member

  20. Markswift2003

    Markswift2003 Well-Known Member SUPER Administrator Beta test group Contributor

    Dead simple. The SOC doesn't support 10-bit 4:2:2.
     

Share This Page