New firmware v2.0.34 version for ZIDOO X9S release

Discussion in 'X9S Official Firmware Releases' started by mirror, Jul 4, 2018.

Thread Status:
Not open for further replies.
  1. godalmighty

    godalmighty Active Member

    this video is made just for you :D


    my tv is LG 55UH650T and with AVR Denon 1905
     
  2. Thank you very much for the effort but mine is not working even if I turn on the Downmix, I'm only getting stereo output via SPDIF if Downmix is turned ON. But I have tested same thing with Kodi in Zidoo X9S and it works well for both DTS HD and TrueHD Downmix.
     
  3. Ekul

    Ekul Active Member

    What did you expect?
    You bought a chinese spyware player.
    Dont complain.
     
  4. 3DBuff

    3DBuff Active Member

    @Ekul, why are you here? Didn’t you buy the same spyware box?
    ;)
     
  5. 3DBuff

    3DBuff Active Member

    Audio Downmix.

    I did few tests on it couple months ago but it needed refresh with new firmware to be correct.

    Here are my findings.
    Zidoo setup:
    Quick settings > Audio:
    HDMI - Close
    SPDIF - RAW
    Downmix HD Audio - ON

    I had to move few things around to test this setup. My reference files are from Kodi Wiki website demo files with various audio test samples. My amp is old Onkyo with SPDIF and digital coax.

    - DTS-HD MA 7.1 is correctly downmixed to DTS 5.1 over SPDIF fiber cable.
    - Dolby Digital+ 7.1 appears correct as DD 5.1
    - Dolby Atmos TruHD 7.1 is payed as stereo PCM unless it has a Companion Track build in as DD 5.1

    The best files are the ones with channel check. Interesting point is that subwoofer channel is not mixed into stereo output. This is a warning for headphones. There is no Sub channel sounds at all in headphone or any other stereo mix.

    I hope this helps to set the baseline.

    My old amp is on 3D HD projector with Raspberry Pi. The Pi can do multi-channel PCM and it works perfect with old Onkyo high current 7.1 amp from before HDMI was invented :) I get correct 7.1 from all sample files.
     
  6. godalmighty

    godalmighty Active Member

    i really dont know what wrong with your box :(
    my setting, HDMI-RAW, SPDIF-RAW, Downmix HDaudio-ON
    i will try again what @3DBuff reference next
    - Dredd – DTS Sound Check DTS-HD MA 7.1
    - dolby_truehd_channel_check_lossless-DWEU
    - dolby_amaze_lossless-DWEU
     
  7. JohnS

    JohnS Member

    You don't know what you're talking about, first you ask "I have tried using SPDIF from Zidoo to AVR and I'm receiving stereo output for TRUEHD but DTS working fine."
    and then you're talking about
    i shouldn't have answered you in the first place
     
  8. Yes you should have not answered to my post because you are not following my post and you are replying halfway and i was replying to my topic followers. i think you got into the wrong bus.
     
    Last edited: Aug 5, 2018
  9. Well said @3DBuff ,this forum is made for product upgrading purpose and @Ekul yes we will keep on demand until we get what we want. This is the relationship between the Developer and the consumer.
     
  10. Fatih Durmus

    Fatih Durmus Member

    Hi,

    I am using X9s. I solved bittorent problem. But how can I remote Transmission web from wan. I cant find port forwarding settings. I watched a lot video on internet. There is telling select network and firewall settings.
    But there is no selection on network. How can ı remote my torrents from my work office .
    When restart device torrent not working again. Dou you have any solutions about this problems.

    Thank You,
     
  11. godalmighty

    godalmighty Active Member

    just be compromized :D with him
    he just get upset with his box, no offense taken :p

    @Vageesan Sivananthan
    i have try what @3DBuff reference and i got the same result with him :(
    DTS HD and Dolby Digital Plus work fine and got 5.1ch downmix too
    but for Atmos i dont know why they dont get 5.1ch downmix just like i tested with Deadpool
    Code:
    ID                          : 0 (0x0)
    Complete name               : E:\4K\Deadpool.2016.2160p.BluRay.HEVC.TrueHD.7.1.Atmos-OMFUG\BDMV\STREAM\00063.m2ts
    Format                      : BDAV
    Format/Info                 : Blu-ray Video
    File size                   : 45.5 GiB
    Duration                    : 1 h 48 min
    Overall bit rate mode       : Variable
    Overall bit rate            : 60.2 Mb/s
    Maximum Overall bit rate    : 109 Mb/s
    
    Video
    ID                          : 4113 (0x1011)
    Menu ID                     : 1 (0x1)
    Format                      : HEVC
    Format/Info                 : High Efficiency Video Coding
    Format profile              : Main 10@L5.1@High
    Codec ID                    : 36
    Duration                    : 1 h 48 min
    Bit rate                    : 53.1 Mb/s
    Width                       : 3 840 pixels
    Height                      : 2 160 pixels
    Display aspect ratio        : 16:9
    Frame rate                  : 23.976 (24000/1001) FPS
    Color space                 : YUV
    Chroma subsampling          : 4:2:0 (Type 2)
    Bit depth                   : 10 bits
    Bits/(Pixel*Frame)          : 0.267
    Stream size                 : 40.1 GiB (88%)
    Writing library             : ATEME Titan KFE 3.7.3 (4.7.3.1003)
    Color range                 : Limited
    Color primaries             : BT.2020
    Transfer characteristics    : PQ
    Matrix coefficients         : BT.2020 non-constant
    Mastering display color pri : R: x=0.680000 y=0.320000, G: x=0.265000 y=0.690000, B: x=0.150000 y=0.060000, White point: x=0.312700 y=0.329000
    Mastering display luminance : min: 0.0000 cd/m2, max: 1000.0000 cd/m2
    
    Audio #1
    ID                          : 4352 (0x1100)
    Menu ID                     : 1 (0x1)
    Format                      : TrueHD / AC-3
    Format profile              : TrueHD+Atmos / TrueHD / AC-3
    Format settings, Endianness : Big
    Muxing mode                 : Stream extension
    Codec ID                    : 131
    Duration                    : 1 h 48 min
    Bit rate mode               : Variable / Constant
    Bit rate                    : 640 kb/s
    Maximum bit rate            : 8 466 kb/s
    Channel(s)                  : Object Based / 8 channels / 6 channels
    Channel positions           : Object Based / Front: L C R, Side: L R, Back: L R, LFE / Front: L C R, Side: L R, LFE
    Sampling rate               :  / 48.0 kHz / 48.0 kHz
    Frame rate                  : 31.250 FPS (1536 SPF)
    Bit depth                   : 16 bits
    Stream size                 : 495 MiB (1%)
    Service kind                : Complete Main
    Code:
    General
    ID                          : 1 (0x1)
    Complete name               : E:\MOVIES CLIP TEST\4K\dolby_amaze_lossless-DWEU.m2ts
    Format                      : BDAV
    Format/Info                 : Blu-ray Video
    File size                   : 173 MiB
    Duration                    : 1 min 3 s
    Overall bit rate mode       : Variable
    Overall bit rate            : 22.9 Mb/s
    Maximum Overall bit rate    : 35.5 Mb/s
    
    Video
    ID                          : 4113 (0x1011)
    Menu ID                     : 1 (0x1)
    Format                      : AVC
    Format/Info                 : Advanced Video Codec
    Format profile              : High@L4.1
    Format settings             : CABAC / 4 Ref Frames
    Format settings, CABAC      : Yes
    Format settings, RefFrames  : 4 frames
    Codec ID                    : 27
    Duration                    : 1 min 3 s
    Bit rate mode               : Variable
    Bit rate                    : 21.3 Mb/s
    Maximum bit rate            : 40.0 Mb/s
    Width                       : 1 920 pixels
    Height                      : 1 080 pixels
    Display aspect ratio        : 16:9
    Frame rate                  : 24.000 FPS
    Color space                 : YUV
    Chroma subsampling          : 4:2:0
    Bit depth                   : 8 bits
    Scan type                   : Progressive
    Bits/(Pixel*Frame)          : 0.428
    Stream size                 : 161 MiB (93%)
    Language                    : English
    
    Audio #1
    ID                          : 4352 (0x1100)
    Menu ID                     : 1 (0x1)
    Format                      : TrueHD / AC-3
    Format profile              : TrueHD+Atmos / TrueHD / AC-3
    Format settings, Endianness : Big
    Muxing mode                 : Stream extension
    Codec ID                    : 131
    Duration                    : 1 min 3 s
    Bit rate mode               : Variable / Constant
    Bit rate                    : 640 kb/s
    Maximum bit rate            : 9 096 kb/s
    Channel(s)                  : Object Based / 8 channels / 6 channels
    Channel positions           : Object Based / Front: L C R, Side: L R, Back: L R, LFE / Front: L C R, Side: L R, LFE
    Sampling rate               :  / 48.0 kHz / 48.0 kHz
    Frame rate                  : 31.250 FPS (1536 SPF)
    Bit depth                   : 16 bits
    Stream size                 : 4.84 MiB (3%)
    Service kind                : Complete Main
    maybe someone can explain it why :(:(:(
     
    Last edited: Aug 4, 2018
  12. JohnS

    JohnS Member

    Yeahh i won't bother again with this guy
     
    godalmighty likes this.
  13. Well like he said, I was little upset. Anyway I'm really very sorry for my behaviour. Sometimes I just can't control myself. I really understand that we are all here to help each other to solve problems.
     
    godalmighty likes this.
  14. Noted Bro, maybe I'll give a try with my Logitech Z906. Still planning to get the Denon AVR-X6400h or the X8500H.
     
  15. JohnS

    JohnS Member

    Ok lets forget all this , I hope you find solution to your questions because honestly zidoo is an honest machine for its money.

    I have mine attached on a Logitech Z-5500 through spdif with "Downmix HD Audio output" enabled and spdif audio to 'raw' and have DTS and DD working fine on 5.1
     
    Last edited: Aug 5, 2018
  16. JohnS

    JohnS Member

    can you post a link to the dolby file? just to check for myself
     
  17. godalmighty

    godalmighty Active Member

  18. 3DBuff

    3DBuff Active Member

    I was thinking of doing this with my old computer surround system from Logitech Z-5500. However I got disappointed with the muffled sound. Lack of treble adjustment and single coil speaker make the sound dull. I ended up with 30 year old stereo JVC receiver, small JBL cube double coil speakers and 10" powered sub. Sure there is no surround but the sound is crystal clear with deep base when needed. Don't really have room for surround speakers where the TV is.
     
  19. x9suser

    x9suser Member

    Please please Zidoo , fix the playback of rmvb files. It is in your supported format and was working before. But the last few FW, it becomes unsupported format error.
     
  20. JohnS

    JohnS Member

    Yes its not the best sound but the only available to me until i upgrade my sound system :(
     
Thread Status:
Not open for further replies.

Share This Page