Beta version v6.3.0 for Z9X/Z10 Pro/Z1000 Pro/UHD3000

Discussion in 'HDD Media player(RTD 1619DR)' started by mirror, Apr 30, 2021.

  1. Mabon

    Mabon Active Member

    I've never heard of TVMaze, so I'm guessing it's American and no use to me :rolleyes:. So why hasn't scraping from IMDB been implemented :(?
     
  2. Nice Monkey

    Nice Monkey Well-Known Member Beta test group

    It is not in the update list just MP4 support for DV. Must be more complex to be added. For sure it will come sooner or later.

    Once more a bugfixing FW update which is most welcome. Keep those coming please.
     
    Last edited: Apr 30, 2021
  3. Daniel Barbara

    Daniel Barbara New Member

    I have a Zidoo Z10 Pro and updated to this beta version today. After testing a few UHD MKV movie rips, I am happy to report that everything is working perfectly now with my Dolby Vision enabled Hisense 4K 65R8 TV.
     
  4. UTAVATU

    UTAVATU Member

    Dear @mirror

    I have installed the latest Beta version 6.3.0_G and I have some feedback:

    1. When changing to the next or previous chapter in .mkv 3840x2160@23.976 (tested: Braveheart, Back to the Future) and 3840x2160@59.400 (Gemini Man) with Dolby Vision there show for 0,5-1,0s a green screen and new chapter is showing 1 frame from previous chapter. I have noticed this only with Dolby Vision movies. I have tested Exodus: Gods and Kings, Everest with HDR and there is no such problem as described.

    2. It would be great to have in Home Theatre 4.0 two new features:
    a) Play movie directly from Poster in Classic Mode without entering to the Information Page with Actors, Plots etc. (possibility to set this option "Set as Default" or "Ask what to do? - Play movie or enter Information Page").
    b) Possibility to rearrange/move movies places in Classic Mode like in the Collections page or possibility to read <sorttitle></sorttitle> from .nfo file, there I could enter for example: <sorttitle>Star Wars 1</sorttitle>, <sorttitle>Star Wars 2</sorttitle> etc. This tag will only be used for SORT feature, the movie title should be shown in Classic Mode with <title></title> or <originaltitle></originaltitle>.

    Sincerely
     
  5. Eleonor

    Eleonor Active Member

    @mirror
    I installed and I am looking at the translation into Polish ....

    It seems to me that some expressions are worse than in the previous firmware
    I am waiting for more professional ones :)
     
  6. OlivierQC

    OlivierQC Well-Known Member Beta test group

    2. Added CLEARLOGO on poster wall when starting playing.

    Nice...

    [​IMG]

    [​IMG]

     
    zarathoestra likes this.
  7. Eleonor

    Eleonor Active Member

    I also have green flashes when switching chapters movie-s Dolby Vision :(
    In previous firmware it was also ..
     
  8. Daniel Barbara

    Daniel Barbara New Member

    I could be wrong but that kind of sounds like a HDCP handshaking issue.
     
  9. Eleonor

    Eleonor Active Member

    I have just tested
    HDCP on, off green flashes when switching chapters movie-s Dolby Vision
     
    Last edited: Apr 30, 2021
  10. UTAVATU

    UTAVATU Member

    Dear @Eleonor

    As far as I rozumiem ;) ...HDCP should be disabled and no Green Flashes? What about showing 1 frame from previous chapter, when clicking button SkipbackForward (Next Chapter)? It wasn't on Beta 6.2.5 and 6.2.0, only on 6.3.0.

    Sincerely
     
  11. Eleonor

    Eleonor Active Member

    HDCP disabled = Green Flashes
    HDCP enabled = Green Flashes

    I have it as long as I remember, it was also on the previous firmware
     
  12. NikosR6

    NikosR6 New Member

    Super thanks to all for it :):)
     
  13. Nice Monkey

    Nice Monkey Well-Known Member Beta test group

    A few MP instabilities seem to be solved with this FW. Had a few annoying once's.
    Now looking a cover/folder art display using Media Center for album selection.
     
  14. UTAVATU

    UTAVATU Member

    Dear @Eleonor

    Strange, I haven't got such Green Flashes Screen in 6.2.5 and 6.2.0. Do you play .mkv files or BDMV or ISO?

    I have checked various settings on/off and I cannot find, which option is causing this Green Flashes Screen. There is only one new option HDMI Signal Standard/Enhanced like in my TV, which I have got Enhanced and also on Z9X.

    Sincerely
     
  15. Movie78

    Movie78 Member Beta test group

    Dune HD Pro Vision 4K Solo and the Zidoo share the same Realtek RTD1619DR chipset, the Dune players already have this function already working.
     
  16. DELUCAS

    DELUCAS Well-Known Member

    its a nice Little touch :) :)
    I like
     
    DennisTheMenace likes this.
  17. rozel

    rozel Active Member

    Thanks @mirror for the new Firmware. @Nice Monkey you can't have it both ways - the UHD3000 is a Hifi model isn't it with the Z1000 Pro being a High End model? This is what you've said before. Can we clarify with certainty please?
     
  18. blenky

    blenky Active Member

    Well this was a nice surprise. The rate of beta firmwares is awesome. Looking forward to adding DV playback from full menus
     
  19. Movie78

    Movie78 Member Beta test group

    MP4 DV not working, the file plays in HDR

    General
    Complete name : C:\Users\Mother! (2017).uhd.dv.atmos.mp4
    Format : MPEG-4
    Format profile : Base Media
    Codec ID : isom (isom)
    File size : 33.7 GiB
    Duration : 2 h 1 min
    Overall bit rate : 39.8 Mb/s
    Encoded date : UTC 2021-04-07 10:46:15
    Tagged date : UTC 2021-04-07 10:46:15
    Writing application : My MP4Box GUI 0.6.0.6 <http://my-mp4box-gui.zymichost.com>
    Copyright : NViDiON-DV
    Video
    ID : 1
    Format : HEVC
    Format/Info : High Efficiency Video Coding
    Format profile : Main 10@L5.1@High
    HDR format : Dolby Vision, Version 1.0, dvhe.05.06, BL+RPU / SMPTE ST 2086, HDR10 compatible
    Codec ID : dvhe
    Codec ID/Info : High Efficiency Video Coding with Dolby Vision
    Duration : 2 h 1 min
    Bit rate : 39.2 Mb/s
    Width : 3 840 pixels
    Height : 2 160 pixels
    Display aspect ratio : 16:9
    Frame rate mode : Constant
    Frame rate : 23.976 (24000/1001) FPS
    Color space : YUV
    Chroma subsampling : 4:2:0 (Type 2)
    Bit depth : 10 bits
    Bits/(Pixel*Frame) : 0.197
    Stream size : 33.2 GiB (98%)
    Title : Mother.mp4
    Encoded date : UTC 2021-04-07 09:55:11
    Tagged date : UTC 2021-04-07 10:48:15
    Color range : Limited
    Color primaries : BT.2020
    Transfer characteristics : PQ
    Matrix coefficients : BT.2020 non-constant
    Mastering display color primaries : Display P3
    Mastering display luminance : min: 0.0001 cd/m2, max: 1000 cd/m2
    Codec configuration box : hvcC+dvcC
    Audio
    ID : 2
    Format : E-AC-3
    Format/Info : Enhanced AC-3
    Commercial name : Dolby Digital Plus
    Codec ID : ac-3
    Duration : 2 h 1 min
    Bit rate mode : Constant
    Bit rate : 640 kb/s
    Channel(s) : 6 channels
    Channel layout : L R C LFE Ls Rs
    Sampling rate : 48.0 kHz
    Frame rate : 31.250 FPS (1536 SPF)
    Compression mode : Lossy
    Stream size : 555 MiB (2%)
    Title : Mother.mp4
    Language : English
    Service kind : Complete Main
    Default : Yes
    Alternate group : 1
    Encoded date : UTC 2021-04-07 09:55:11
    Tagged date : UTC 2021-04-07 10:48:15
     
  20. Markswift2003

    Markswift2003 Well-Known Member SUPER Administrator Beta test group Contributor

    Other than the lipsync issue which is still there (reported) MP4s play fine here whether Profile 4, 5 or 7 and now Dual Track is supported too.
     
    fedofed likes this.

Share This Page