New firmware v1.5.0 version for ZIDOO X9S release

Discussion in 'X9S Official Firmware Releases' started by mirror, Dec 6, 2017.

  1. blasiusx

    blasiusx Member


    Same here. This Bug and and that 1080 50i Interlaced Video Files are only played back with 25 FPS force me to downgrade to 1.4.16. :(
     
  2. Marcell P

    Marcell P New Member

    It still did not improve the subtitle function. Can not save subtitle settings (one setting, each movie subtitle should be the same settings). Subtitles can not to show italic fonts (Example: <i>How are you?</i> instead of How are you? These are problems: MKV internal subtitle and also external srt subtitle.
     
    trendkill and Vinny4K like this.
  3. Vinny4K

    Vinny4K Member

    Too bad indeed. It's very disturbing if a subtitle is not showing correctly! With every firmware update i mentioned it, but still not on te to do list by Zidoo. Don't think they can fix it.
     
    trendkill likes this.
  4. mike72

    mike72 New Member

    Hi anyone has issue with dtx pass through works fine when disable external player I am using denon avr.
     
  5. Ekul

    Ekul Active Member

    Yes very bad indeed.
    Maybe a tip is to rip subtitel into programm called subtitle edit.
    Save the srt as western europe 1252.
    It makes the "1" above first line gone and also starts the movie with external sub.(utf8 does not).
     
  6. ikkjr

    ikkjr New Member

    Unfortunately certain subtitle languages do need the utf-8 encoding.

    The "1" in the first subtitle line bug exists for a very long time, is that bug so hard to fix??
     
  7. mirror

    mirror Well-Known Member SUPER Administrator Zidoo TECH Supporter

    It only happens in the internal subtitle,Not external subtitle.
    Because the internal subtitle is processed by SDK, the external subtitle is processed by the ZIDOO.
    All of the devices based 1295 chips - have the same problem. Including internal and external subtitle, but ZIDOO developed its own subtitle system, so it solved the external subtitle. At the same time, support the external ASS special effect subtitle and change the subtitle FONT function. We even tried to peel off the internal subtitles to be processed by ZIDOO, but there was no obvious progress at the moment.
     
    Last edited: Dec 11, 2017
    Marcell P likes this.
  8. mirror

    mirror Well-Known Member SUPER Administrator Zidoo TECH Supporter

    While you keep blaming, please understand that our engineers have been working hard to solve problems. Compared with our competitors, we have done enough.
    Do not forget that it is a BETA version, just to put forward your feedback and your use environment!
     
    Last edited: Dec 11, 2017
    Marcell P likes this.
  9. mirror

    mirror Well-Known Member SUPER Administrator Zidoo TECH Supporter

    On the basic functions of the firmware, ZIDOO is always three to four months ahead of its competitors. We work with REALTEK to solve some known bugs and add new functionality. Because ZIDOO is more experienced and developed in this field, and we always want to give the best experience to the user. But what do you think? Because we always go ahead, the result is that there will be some unstable factors, and we get more attack and less understanding. And the competitors synchronize the version after the trial and error of the ZIDOO, and even copy the update list of ZIDOO. What they get is good evaluation.
    But they can never copy the core competencies of the ZIDOO, Such as the Blu-ray full MENU,Special effect subtitle etc.. They are developed independently by ZIDOO
     
    Last edited: Dec 11, 2017
    Marcell P, nikos_a and DELUCAS like this.
  10. ikkjr

    ikkjr New Member

    X9S FW minor bug report:

    External subtitle .SRT (UTF-8 Encoded) has a minor bug.

    E.g. if the content of a external xxx.srt file is:
    1
    00:00:34,300 --> 00:00:39,300
    This is Line 1

    2
    00:03:12,590 --> 00:03:17,500
    This is Line 2

    3
    ...............



    The first subtitle displayed on the screen will become
    1
    This is Line 1
    (The numeric character '1' on the 1st line which I believe is the line number should not be displayed)
     
  11. mirror

    mirror Well-Known Member SUPER Administrator Zidoo TECH Supporter

    Got it.Thanks.
     
  12. HaoSs

    HaoSs Well-Known Member Beta test group Contributor

    if only we'd get an update post every week or two, i'm here for long enough to understand how hard you work, but 3 months with no news it's hard on most users, hell. some of them want responses in minutes . @freeroc was doing a good job on this, but his missing now. Someone will have to step up and take the job. I have been in situations with confessed buyers where a 30 seconds response full of information can make or brake a sell. But some require a actual zidoo guy to make them, and there was none. Not the mention the time where the absence of zidoo made people think you are closing up and ill be the last one to close the forum. LOL ( it's sad actually )
     
    Sarco likes this.
  13. dferregu

    dferregu Member

    ZIUI_BUG IN firmware v1.5.0 version for ZIDOO X9S to solve in next firmware release - error PLAYING MTS 3D FILES - BIG GREEN LINE AND CRASH ZUIU AFTER PLAY MTS 3DFILES

    2 BUGS playing MTS (3d camcorder) files PLEASE SOLVE IN NEXT NOT BETA FIRMWARE RELEASE

    Dear friends, I can confirm that MTS repeat all works fine, but with issues... please see the video below

    I have a test folder with 5 MTS FILES

    BUG 1:
    As you can see, the first file "0000.mts" starts playing in 3D but with a BIG GREEN LINE in screen, next MTS file "0001.mts" play with GREEN LINE not as big as the first video file, next MTS file "0002.mts" play with GREEN LINE not as big as the before video file next "0003.mts"play OK , play OK "0004.mts" then start with "0000.mts" file playing PERFECT ┬┐Why first time playing mts folder file play bad? and the same file after playing other mts play ok?
    Video 1:


    BUG 2:
    When you finish playing MTS 3D files, the ZIDOO ZIUI BROOKES!! as you can see in pictures and video below. Video 1: BLACK SCREEN, Video 2: Resize ZIUI
    Video 2:

    PLEASE @mirror TALK WITH ENGINEERS THAT ARE WORKING WITH THE NEW ZIUI for test new ZIUI before release.

    Download 5 MTS videos for engineers test from wetransfer link:
    MTS 3D FILES (FOR TEST): https://we.tl/SbA2AHfE8i

    The zidoo X9S config is:
    OTA-ZIDOO_X9S-v1.4.19-201712051846
    DISPLAY:
    HDMI MODE: auto
    MODE DEEP: auto
    YCbCr422
    RANGE MODE: Full range (0-255)
    AUTOMATIC FRAME RATE: switch frame rate and resolution

    Best regards, great to help the best media player even!!!
    David
     
    Last edited: Jan 14, 2018
  14. dferregu

    dferregu Member

    BUG in firmware v1.4.19 BETA version for ZIDOO X9S to solve in next release PLAYING 10BIT MKV FILES
    Dear friends, testing 10bit files, zidoo says "can`t play".
    I testes 2 files:
    File 1:
    General
    Unique ID : 240691241135275924418533281830645705725 (0xB5137265C59A0809973BB86D4696ABFD)
    Complete name : F:\10Bits\[10Bit] La Vida De Pi(2012)BDRip 1080p [DTS-AC3][Subs]x264-ESiR.mkv
    Format : Matroska
    Format version : Version 4 / Version 2
    File size : 15.3 GiB
    Duration : 2 h 6 min
    Overall bit rate : 17.2 Mb/s
    Encoded date : UTC 2013-03-26 20:47:43
    Writing application : mkvmerge v6.1.0 ('Old Devil') built on Mar 2 2013 14:32:37
    Writing library : libebml v1.3.0 + libmatroska v1.4.0
    Attachments : Elegance.ttf / tahoma.ttf / arial.ttf

    Video
    ID : 1
    Format : AVC
    Format/Info : Advanced Video Codec
    Format profile : High 10@L4.1
    Format settings, CABAC : Yes
    Format settings, RefFrames : 4 frames
    Codec ID : V_MPEG4/ISO/AVC
    Duration : 2 h 6 min
    Bit rate : 14.2 Mb/s
    Width : 1 920 pixels
    Height : 1 040 pixels
    Display aspect ratio : 1.85:1
    Frame rate mode : Constant
    Frame rate : 23.976 (24000/1001) FPS
    Color space : YUV
    Chroma subsampling : 4:2:0
    Bit depth : 10 bits
    Scan type : Progressive
    Bits/(Pixel*Frame) : 0.296
    Stream size : 12.6 GiB (82%)
    Writing library : x264 core
    Language : English
    Default : Yes
    Forced : No

    Audio #1
    ID : 2
    Format : DTS
    Format/Info : Digital Theater Systems
    Mode : 16
    Format settings, Endianness : Big
    Codec ID : A_DTS
    Duration : 2 h 6 min
    Bit rate mode : Constant
    Bit rate : 768 kb/s
    Channel(s) : 6 channels
    Channel positions : Front: L C R, Side: L R, LFE
    Sampling rate : 48.0 kHz
    Frame rate : 93.750 FPS (512 SPF)
    Bit depth : 24 bits
    Compression mode : Lossy
    Stream size : 698 MiB (4%)
    Title : DTS Castellano 5.1[755Kbps]
    Language : Spanish
    Default : Yes
    Forced : No

    Audio #2
    ID : 3
    Format : AC-3
    Format/Info : Audio Coding 3
    Format settings, Endianness : Big
    Codec ID : A_AC3
    Duration : 2 h 6 min
    Bit rate mode : Constant
    Bit rate : 448 kb/s
    Channel(s) : 6 channels
    Channel positions : Front: L C R, Side: L R, LFE
    Sampling rate : 48.0 kHz
    Frame rate : 31.250 FPS (1536 SPF)
    Bit depth : 16 bits
    Compression mode : Lossy
    Stream size : 407 MiB (3%)
    Title : Castellano AC3 5.1[448Kbps]Creado Del DTS
    Language : Spanish
    Service kind : Complete Main
    Default : No
    Forced : No

    Text #1
    ID : 5
    Format : ASS
    Codec ID : S_TEXT/ASS
    Codec ID/Info : Advanced Sub Station Alpha
    Compression mode : Lossless
    Title : Forzados Castellano Estilos
    Language : Spanish
    Default : Yes
    Forced : No

    Text #2
    ID : 6
    Format : UTF-8
    Codec ID : S_TEXT/UTF8
    Codec ID/Info : UTF-8 Plain Text
    Title : Forzados Castellano Planos
    Language : Spanish
    Default : No
    Forced : No


    File 2:

    General
    Unique ID : 248474286582928921090258837585395017287 (0xBAEE682A350FB0D006BAD706F2C56647)
    Complete name : F:\10Bits\[10Bit] Iron Man 3 2013 10Bits [Bluray 1080p Dual+Subs Estilos].mkv
    Format : Matroska
    Format version : Version 4 / Version 2
    File size : 15.4 GiB
    Duration : 2 h 10 min
    Overall bit rate : 16.9 Mb/s
    Movie name : Iron man 3 2013 - ESiR - R&C @HDTeam
    Encoded date : UTC 2013-09-29 14:10:33
    Writing application : mkvmerge v6.3.0 ('You can't stop me!') built on Jun 27 2013 20:27:21
    Writing library : libebml v1.3.0 + libmatroska v1.4.0

    Video
    ID : 1
    Format : AVC
    Format/Info : Advanced Video Codec
    Format profile : High 10@L5.1
    Format settings, CABAC : Yes
    Format settings, RefFrames : 6 frames
    Codec ID : V_MPEG4/ISO/AVC
    Duration : 2 h 10 min
    Bit rate : 12.7 Mb/s
    Width : 1 920 pixels
    Height : 800 pixels
    Display aspect ratio : 2.40:1
    Frame rate mode : Constant
    Frame rate : 23.976 (24000/1001) FPS
    Color space : YUV
    Chroma subsampling : 4:2:0
    Bit depth : 10 bits
    Scan type : Progressive
    Bits/(Pixel*Frame) : 0.344
    Stream size : 11.6 GiB (75%)
    Title : Iron man 3 2013 - ESiR - R&C @HDTeam
    Writing library : x264 core
    Language : English
    Default : Yes
    Forced : No

    Audio #1
    ID : 2
    Format : AC-3
    Format/Info : Audio Coding 3
    Format settings, Endianness : Big
    Codec ID : A_AC3
    Duration : 2 h 10 min
    Bit rate mode : Constant
    Bit rate : 640 kb/s
    Channel(s) : 6 channels
    Channel positions : Front: L C R, Side: L R, LFE
    Sampling rate : 48.0 kHz
    Frame rate : 31.250 FPS (1536 SPF)
    Bit depth : 16 bits
    Compression mode : Lossy
    Stream size : 598 MiB (4%)
    Language : Spanish
    Service kind : Complete Main
    Default : Yes
    Forced : No

    Menu
    00:00:00.000 : en:New Year's Eve, 1999
    00:04:52.750 : en:R60 Department
    00:07:55.433 : en:The Mandarin
    00:12:12.440 : en:Killian Returns
    00:19:04.101 : en:Tony & Pepper at Home
    00:23:47.884 : en:Happy Follows Savin
    00:29:47.702 : en:House Attack
    00:39:46.384 : en:Rose Hill, Tennessee
    00:45:56.044 : en:Unraveling the Past
    00:59:19.639 : en:The Mandarin Teaches a Lesson
    01:01:56.921 : en:Tony Hacks A.I.M.
    01:09:24.451 : en:Locating the Mandarin
    01:18:41.508 : en:Captured by Killian
    01:23:52.944 : en:Attack on Air Force One
    01:37:55.995 : en:Showdown at the Docks
    01:56:18.304 : en:New Beginnings
    01:59:38.754 : en:End Credits
     
  15. mirror

    mirror Well-Known Member SUPER Administrator Zidoo TECH Supporter

    Can not support Hi10p(H.264 10bit)
     
  16. failax

    failax Member

    There are one or two posts that treat this problem, in the last two updates 10 bit doesn't work and we have received no official responses from zidoo members.
     
  17. mirror

    mirror Well-Known Member SUPER Administrator Zidoo TECH Supporter

    For the 4k 60hz resolution, not 4:2:2 10bit supports.just 12bit!! or 4:2:0 10bit
     
  18. failax

    failax Member

    I see 4k hdr movies in 8 bit 4:4:4, even setting on AUTO.
     
  19. dferregu

    dferregu Member

    OK sorry i did not read past threats.
    Hope to solve if it is not chipset (RTD1295) limitation...
    best regards
     
  20. mirror

    mirror Well-Known Member SUPER Administrator Zidoo TECH Supporter

    Tried set to 4:2:0 ?
     

Share This Page