X9S x9s不支持h264 high10吗?

Discussion in '中文讨论区' started by tochiro, Nov 9, 2017.

Tags:
  1. tochiro

    tochiro New Member

    听网友说X9S所有格式通吃,就去买了一个。使用上还比较满意,但发现我有几乎一半的片子都播放不了,这些片子似乎都是h264 high编码的。
    请问,X9S是真的无法播放h264 high吗?有没有解决的办法?
    如果没有办法,我可能只好退货了。挺可惜的,我还蛮喜欢这个机器的。

    随便找了五个无法播放的视频的媒体信息,请参考,谢谢指点。

    Video: MPEG4 Video (H264) 1280x720 23.976fps [V: English [eng] (h264 high 10 L5.0, yuv420p10le, 1280x720) [default]]
    Audio: Dolby AC3 48000Hz 6ch 448kbps [A: English 5.1 AC3 [eng] (ac3, 48000 Hz, 5.1, 448 kb/s) [default]]
    Audio: Dolby AC3 48000Hz stereo 192kbps [A: Japanese 2.0 AC3 [jpn] (ac3, 48000 Hz, stereo, 192 kb/s)]
    Subtitle: Advanced SubStation Alpha [S: English Lyrics/Signs [eng] (ass) [default]]
    Subtitle: Advanced SubStation Alpha [S: English Subtitles [jpn] (ass)]
    Subtitle: UTF-8 [S: No subtitles]


    Video: MPEG4 Video (H264) 1280x720 23.976fps [V: H264 [jpn] (h264 high 4:4:4 predictive L5.2, yuv444p10le, 1280x720) [default]]
    Audio: FLAC (framed) 48000Hz stereo 2304kbps [A: JPN [jpn] (flac, 48000 Hz, stereo, s24) [default]]
    Audio: FLAC (framed) 48000Hz stereo 2304kbps [A: ENG [eng] (flac, 48000 Hz, stereo, s24)]
    Subtitle: Advanced SubStation Alpha [S: Full [eng] (ass) [default]]
    Subtitle: Advanced SubStation Alpha [S: Signs [eng] (ass)]
    Subtitle: UTF-8 [S: No subtitles]


    Video: MPEG4 Video (H264) 1920x1080 23.976fps [V: h264 high 10 L5.1, yuv420p10le, 1920x1080 [default]]
    Audio: AAC 48000Hz stereo [A: English 2ch [eng] (aac lc, 48000 Hz, stereo) [default]]
    Audio: AAC 48000Hz stereo [A: Japanese 2ch [jpn] (aac lc, 48000 Hz, stereo)]
    Subtitle: Advanced SubStation Alpha [S: English Lyrics/Signs [eng] (ass) [default]]
    Subtitle: Advanced SubStation Alpha [S: English Subtitles [eng] (ass)]
    Subtitle: UTF-8 [S: No subtitles]


    Video: MPEG4 Video (H264) 1920x1080 23.976fps [V: English [eng] (h264 high 10 L5.0, yuv420p10le, 1920x1080) [default]]
    Audio: FLAC (framed) 48000Hz stereo 1536kbps [A: Japanese [jpn] (flac, 48000 Hz, stereo, s16) [default]]
    Audio: FLAC (framed) 48000Hz stereo 1536kbps [A: English [eng] (flac, 48000 Hz, stereo, s16)]
    Subtitle: Advanced SubStation Alpha [S: Retail [eng] (ass) [default]]
    Subtitle: Advanced SubStation Alpha [S: Songs / Signs [eng] (ass)]
    Subtitle: UTF-8 [S: No subtitles]

    Video: MPEG4 Video (H264) 1920x1080 23.976fps [V: Japanese [jpn] (h264 high 10 L5.0, yuv420p10le, 1920x1080) [default]]
    Audio: FLAC (framed) 48000Hz 3ch 2304kbps [A: English [eng] (flac, 48000 Hz, 3.0, s16) [default]]
    Audio: FLAC (framed) 48000Hz 3ch 2304kbps [A: Japanese [jpn] (flac, 48000 Hz, 3.0, s16)]
    Subtitle: Advanced SubStation Alpha [S: English [eng] (ass)]
    Subtitle: UTF-8 [S: No subtitles]
     
  2. Loseway

    Loseway New Member

    据我所知
    这个CPU对H264很不友好
    你可以试试用软件软解,不知道能不能用
     
  3. sealth

    sealth New Member

    我从PT下的很多动漫都放不了,用ZDMC软解能放出来,不过很卡,暂时也没有办法,不知道哪个播放器可以解决这个问题
     
  4. firdauslee

    firdauslee New Member

    ZiDoo x9s什么戏都可以播放的,没试过电影播放不到
     
  5. tochiro

    tochiro New Member

    我试了一下ZDMC,也是播不出。
     
  6. tochiro

    tochiro New Member

    哈哈哈哈,估计是zidoo的客户看动画的很少。
    近年来动画用h264 h10编码的非常多,偏偏x9s的芯片似乎不支持这个,一个都播不了。
    真是可惜啊。
     
  7. tochiro

    tochiro New Member

    似乎电影没有用h264 h10编码的,这种编码用来压缩动画非常好,但可能对真人电影效果并没有那么好。
    我去国外网站搜索了一下,似乎是说x9s用的芯片不支持它。
     
  8. 40021234

    40021234 New Member

    其實在文件管理app可否選擇用其他app例如mx player軟解播放?
     
  9. nickhuajun

    nickhuajun New Member

    用了快一年了,昨天我才遇到不能播的视频,灌篮高手的动画,一连下了两部,都提示“无法播放”,才想到是格式出问题了,然后对比发现了Format profile可能有问题,不能放的是High 10@开头的,然后就来搜问题了,难以至信,居然芯片就不支持,希望管理员可以给个确认回复!

    附两则未能播放的格式代码:
    • Video
    • ID : 1
    • Format : AVC
    • Format/Info : Advanced Video Codec
    • Format profile : High 10@L5
    • Format settings, CABAC : Yes
    • Format settings, ReFrames : 10 frames
    • Codec ID : V_MPEG4/ISO/AVC

    • Video
    • ID : 6
    • Format : AVC
    • Format/Info : Advanced Video Codec
    • Format profile : High 10@L3.1
    • Format settings, CABAC : Yes
    • Format settings, ReFrames : 6 frames
    • Muxing mode : Header stripping
    • Codec ID : V_MPEG4/ISO/AVC
     
  10. cytacc

    cytacc New Member

    是的,今天我也遇到HIGH 10 编码的不能播放


    Video
    ID : 1
    Format : AVC
    Format/Info : Advanced Video Codec
    Format profile : High 10@L4
    Format settings : CABAC / 4 Ref Frames
    Format settings, CABAC : Yes
    Format settings, ReFrames : 4 frames
    Codec ID : V_MPEG4/ISO/AVC
    Duration : 3 h 56 min
    Bit rate : 2 320 kb/s
    Width : 1 920 pixels
    Height : 1 040 pixels
    Display aspect ratio : 1.85:1
    Frame rate mode : Constant
    Frame rate : 23.976 (24000/1001) FPS
    Color space : YUV
    Chroma subsampling : 4:2:0
    Bit depth : 10 bits
    Scan type : Progressive
    Bits/(Pixel*Frame) : 0.048
    Stream size : 3.83 GiB (90%)
    Writing library : x264 core 148 r2638 7599210
    Encoding settings : cabac=1 / ref=4 / deblock=1:0:0 / analyse=0x3:0x113 / me=umh / subme=7 / psy=1 / psy_rd=1.00:0.00 / mixed_ref=1 / me_range=32 / chroma_me=1 / trellis=1 / 8x8dct=1 / cqm=0 / deadzone=21,11 / fast_pskip=1 / chroma_qp_offset=-2 / threads=12 / lookahead_threads=3 / sliced_threads=0 / nr=0 / decimate=1 / interlaced=0 / bluray_compat=0 / constrained_intra=0 / bframes=4 / b_pyramid=2 / b_adapt=2 / b_bias=0 / direct=1 / weightb=1 / open_gop=0 / weightp=2 / keyint=240 / keyint_min=23 / scenecut=40 / intra_refresh=0 / rc_lookahead=50 / rc=abr / mbtree=1 / bitrate=2320 / ratetol=1.0 / qcomp=0.60 / qpmin=0 / qpmax=81 / qpstep=4 / ip_ratio=1.40 / aq=1:1.00
    Default : Yes
    Forced : No
    Audio
    ID : 2
    Format : AC-3
    Format/Info : Audio Coding 3
    Codec ID : A_AC3
    Duration : 3 h 56 min
    Bit rate mode : Constant
    Bit rate : 256 kb/s
    Channel(s) : 1 channel
    Channel positions : Front: C
    Sampling rate : 48.0 kHz
    Frame rate : 31.250 FPS (1536 SPF)
    Bit depth : 16 bits
    Compression mode : Lossy
    Stream size : 433 MiB (10%)
    Language : Chinese
    Service kind : Complete Main
    Default : Yes
    Forced : No
    Text
    ID : 3
    Format : PGS
    Muxing mode : zlib
    Codec ID : S_HDMV/PGS
    Codec ID/Info : Picture based subtitle format used on BDs/HD-DVDs
    Duration : 3 h 55 min
    Bit rate : 36.6 kb/s
    Count of elements : 4786
    Stream size : 61.6 MiB (1%)
    Language : English
    Default : Yes
    Forced : No
     
  11. cytacc

    cytacc New Member

    试了一下MX PLAYER 及archos vedio player,都卡得一塌糊涂。看来是芯片不行。
     

Share This Page