Not Recognizing HDR 4K Titles

Discussion in 'ZIDOO X7' started by vman, Jan 29, 2018.

  1. vman

    vman New Member

    Hi,

    My zappiti properly recognizes the 4K HDR titles and the HDR logo appears on my LG TV.
    However, when playing the same title on the Zidoo X7, it does not recognize the HDR, and no HDR logo appears on TV.

    Isn't this Zidoo supposed to be able to handle HDR material?
     
  2. vman

    vman New Member

    Hi,

    My zappiti properly recognizes the 4K HDR titles and the HDR logo appears on my LG TV.
    However, when playing the same title on the Zidoo X7, it does not recognize the HDR, and no HDR logo appears on TV.

    Isn't this Zidoo supposed to be able to handle HDR material? Here is a 4K HDR movie that the Zidoo does not display in HDR:

    Video
    ID : 1
    Format : HEVC
    Format/Info : High Efficiency Video Coding
    Format profile : Main 10@L5.1@High
    Codec ID : V_MPEGH/ISO/HEVC
    Duration : 2 h 2 min
    Bit rate : 21.8 Mb/s
    Width : 3 840 pixels
    Height : 1 600 pixels
    Display aspect ratio : 2.40:1
    Frame rate mode : Constant
    Frame rate : 23.976 (24000/1001) FPS
    Color space : YUV
    Chroma subsampling : 4:2:0 (Type 2)
    Bit depth : 10 bits
    Bits/(Pixel*Frame) : 0.148
    Stream size : 18.6 GiB (77%)
    Writing library : x265 2.5+17-f8ae7afc1f61:[Windows][GCC 6.2.1][64 bit] 10bit
    Encoding settings : cpuid=1173503 / frame-threads=4 / numa-pools=16 / wpp / no-pmode / no-pme / no-psnr / no-ssim / log-level=2 / input-csp=1 / input-res=3840x1600 / interlace=0 / total-frames=175587 / level-idc=51 / high-tier=1 / uhd-bd=0 / ref=4 / no-allow-non-conformance / repeat-headers / annexb / aud / hrd / info / hash=0 / no-temporal-layers / no-open-gop / min-keyint=1 / keyint=24 / bframes=4 / b-adapt=2 / b-pyramid / bframe-bias=0 / rc-lookahead=25 / lookahead-slices=4 / scenecut=40 / no-intra-refresh / ctu=64 / min-cu-size=8 / rect / no-amp / max-tu-size=32 / tu-inter-depth=1 / tu-intra-depth=1 / limit-tu=0 / rdoq-level=2 / dynamic-rd=0.00 / no-ssim-rd / signhide / no-tskip / nr-intra=0 / nr-inter=0 / no-constrained-intra / no-strong-intra-smoothing / max-merge=3 / limit-refs=3 / limit-modes / me=3 / subme=3 / merange=57 / temporal-mvp / weightp / no-weightb / no-analyze-src-pics / deblock=-2:-2 / no-sao / no-sao-non-deblock / rd=4 / no-early-skip / rskip / no-fast-intra / no-tskip-fast / no-cu-lossless / no-b-intra / no-splitrd-skip / rdpenalty=0 / psy-rd=2.00 / psy-rdoq=1.00 / no-rd-refine / analysis-reuse-mode=0 / no-lossless / cbqpoffs=0 / crqpoffs=0 / rc=crf / crf=17.0 / qcomp=0.60 / qpstep=4 / stats-write=0 / stats-read=0 / vbv-maxrate=160000 / vbv-bufsize=160000 / vbv-init=0.9 / crf-max=0.0 / crf-min=0.0 / ipratio=1.40 / pbratio=1.30 / aq-mode=1 / aq-strength=1.00 / cutree / zone-count=0 / no-strict-cbr / qg-size=32 / no-rc-grain / qpmax=69 / qpmin=0 / no-const-vbv / sar=1 / overscan=0 / videoformat=5 / range=0 / colorprim=9 / transfer=16 / colormatrix=9 / chromaloc=1 / chromaloc-top=2 / chromaloc-bottom=2 / display-window=0 / master-display=G(13250,34500)B(7500,3000)R(34000,16000)WP(15635,16450)L(10000000,50) / max-cll=0,0 / min-luma=0 / max-luma=1023 / log2-max-poc-lsb=8 / vui-timing-info / vui-hrd-info / slices=1 / opt-qp-pps / opt-ref-list-length-pps / no-multi-pass-opt-rps / scenecut-bias=0.05 / no-opt-cu-delta-qp / no-aq-motion / hdr / hdr-opt / no-dhdr10-opt / analysis-reuse-level=5 / scale-factor=0 / refine-intra=0 / refine-inter=0 / refine-mv=0 / no-limit-sao / ctu-info=0
    Default : Yes
    Forced : No
    Color range : Limited
    Color primaries : BT.2020
    Transfer characteristics : SMPTE ST 2084
    Matrix coefficients : BT.2020 non-constant
    Mastering display color primaries : R: x=0.680000 y=0.320000, G: x=0.265000 y=0.690000, B: x=0.150000 y=0.060000, White point: x=0.312700 y=0.329000
    Mastering display luminance : min: 0.0050 cd/m2, max: 1000.0000 cd/m2

    Audio #1
    ID : 2
    Format : TrueHD
    Format profile : TrueHD+Atmos / TrueHD
    Codec ID : A_TRUEHD
    Duration : 2 h 2 min
    Bit rate mode : Variable
    Bit rate : 5 713 kb/s
    Maximum bit rate : 9 858 kb/s
    Channel(s) : Object Based / 8 channels
    Channel positions : Object Based / Front: L C R, Side: L R, Back: L R, LFE
    Sampling rate : / 48.0 kHz
    Frame rate : 1 200.000 FPS (40 spf)
    Compression mode : Lossless
    Stream size : 4.87 GiB (20%)
    Language : English
    Default : Yes
    Forced : No

    Audio #2
    ID : 3
    Format : AC-3
    Format/Info : Audio Coding 3
    Format settings, Endianness : Big
    Codec ID : A_AC3
    Duration : 2 h 2 min
    Bit rate mode : Constant
    Bit rate : 640 kb/s
    Channel(s) : 6 channels
    Channel positions : Front: L C R, Side: L R, LFE
    Sampling rate : 48.0 kHz
    Frame rate : 31.250 FPS (1536 spf)
    Bit depth : 16 bits
    Compression mode : Lossy
    Stream size : 559 MiB (2%)
    Language : English
    Service kind : Complete Main
    Default : No
    Forced : No

    Text
    ID : 4
    Format : PGS
    Muxing mode : zlib
    Codec ID : S_HDMV/PGS
    Codec ID/Info : Picture based subtitle format used on BDs/HD-DVDs
    Duration : 1 h 54 min
    Bit rate : 35.6 kb/s
    Count of elements : 3418
    Stream size : 29.0 MiB (0%)
    Language : English
    Default : Yes
    Forced : No
     
  3. franck3751

    franck3751 New Member

    same problem with my Zidoo X7

    do you have solution .?
     
  4. x7de

    x7de Member

    franck3751 likes this.
  5. franck3751

    franck3751 New Member

    thanks for links

    please have you tutorial for backup my zidoo x7

    best regards
     
  6. x7de

    x7de Member

    i recommend first try LibreElec on SD Card.
    flash one of the Images to micro SD card and test playback
    http://test.libreelec.tv/
    you can try all RK3328 images, for me TRN9 worked fine, also box and roc
    use Etcher for flashing
     
  7. vman

    vman New Member

  8. vman

    vman New Member

  9. franck3751

    franck3751 New Member

    +1
    same for me

    HDR active with player in zidoo firmware
    not active for kodi and zdmc

    exiting firmware custom for RK3328 compatility with zidoo x7?
     
  10. warmq

    warmq New Member

    do you know how to download 4K subtitle onoline?
    Looking for one MP4 to DVD converter to burning my video to disc.
     
    Last edited: Aug 3, 2018

Share This Page